Search in ebookee.net!

Sara Ivanhoe - 20 Minute Yoga Makeover (Repost)



The poster (email) is not available. 收藏推荐: Bookmark this: Sara Ivanhoe 20 Minute Yoga Makeover Repost

图书介绍


Sara Ivanhoe 20 Minute Yoga Makeover Repost

Sara Ivanhoe - 20 Minute Yoga Makeover (Repost)
DVDRip | English | AVI/XviD 23.976 fps 960 Kbps | 640x480 | MP3 128 Kbps 48.0 khz | Run Time: 100 minutes | 1.46 GB
Genre: Video Training, Yoga

“The 20 Minute Yoga Makeover is not your average yoga program! Sara has created an exciting workout routine that can be done in half the time. This boxed gift set includes five top-selling DVD programs:

Sara Ivanhoe 20 Minute Yoga Makeover Repost

Sara Ivanhoe: 20 Minute Yoga Makeover - Sculpted Buns and Thighs
If you're looking to give your bottom an upgrade, this fitness video featuring Sara Ivanhoe may be just what you're looking for. Sara Ivanhoe: 20 Minute Yoga Makeover - Sculpted Buns and Thighs features a yoga-based workout which focuses special attention on the lower body, helping to tone muscles in the legs, thighs, and buttocks while building strength and burning calories.

Sara Ivanhoe 20 Minute Yoga Makeover Repost

Sara Ivanhoe: 20 Minute Yoga Makeover - Total Body Tone With Weights
Sara Ivanhoe, yoga teacher on the VH1 series Flab to Fab, shows how to boost the effectiveness of your workout in this exercise video. Sara Ivanhoe: 20 Minute Yoga Makeover - Total Body Tone With Weights features a yoga-based exercise routine which incorporates hand weights; while the program can be performed without weights, by adding them, Ivanhoe's program will offer greater benefits in the form of improved muscle tone, increased calorie burn, and greater strength in the upper arms.

Sara Ivanhoe 20 Minute Yoga Makeover Repost

Sara Ivanhoe: 20 Minute Yoga Makeover - Flat Abs
Writer and fitness expert Sara Ivanhoe demonstrates how to get a flatter and fitter tummy through yoga in this exercise video. Sara Ivanhoe: 20 Minute Yoga Makeover -- Flat Abs features a yoga-based workout routine that focuses on the abdominal area, which through a series of twisting and stretching exercises can help tone your abs, strengthen your back, and improve your posture.

Sara Ivanhoe 20 Minute Yoga Makeover Repost

Sara Ivanhoe: 20 Minute Yoga Makeover - Weight Loss
Fitness expert Sara Ivanhoe is on hand to help you with your weight loss routine on this exercise video. Sara Ivanhoe: 20 Minute Yoga Makeover - Weight Loss features a yoga-based workout program designed to boost the heart rate and burn excess calories while toning and strengthening muscles. The workout is designed so yoga students at a variety of different ability levels can use it.

Sara Ivanhoe 20 Minute Yoga Makeover Repost

Sara Ivanhoe: 20 Minute Yoga Makeover - Power Beauty Sweat
Yoga expert Sara Ivanhoe will make you sweat -- and make you enjoy it -- on this special fitness video. Sara Ivanhoe: 20 Minute Yoga Makeover - Power Beauty Sweat features a yoga-based workout designed to tone the major muscle groups, burn off excess calories, and increase the circulation. The program is also intended to work up a healthy sweat, which will help the body rid itself of harmful toxins as well as flush out the skin.”

Sara Ivanhoe 20 Minute Yoga Makeover RepostMediaInfo:
General
Complete name : 20 Minute Yoga_01 - Power Beauty Sweat.avi
Format : AVI
Format/Info : Audio Video Interleave
File size : 293 MiB
Duration : 21mn 46s
Overall bit rate : 1 881 Kbps
Movie name : 2
Writing application : V
Copyright : O

Video
ID : 0
Format : MPEG-4 Visual
Format profile : Advanced [email protected]
Format settings, BVOP : 1
Format settings, QPel : No
Format settings, GMC : No warppoints
Format settings, Matrix : Custom
Codec ID : XVID
Codec ID/Hint : XviD
Duration : 21mn 46s
Bit rate : 1 744 Kbps
Width : 640 pixels
Height : 480 pixels
Display aspect ratio : 4:3
Frame rate : 23.976 fps
Color space : YUV
Chroma subsampling : 4:2:0
Bit depth : 8 bits
Scan type : Progressive
Compression mode : Lossy
Bits/(Pixel*Frame) : 0.237
Stream size : 272 MiB (93%)
Writing library : XviD 65

Audio
ID : 1
Format : MPEG Audio
Format version : Version 1
Format profile : Layer 3
Codec ID : 55
Codec ID/Hint : MP3
Duration : 21mn 46s
Bit rate mode : Constant
Bit rate : 128 Kbps
Channel(s) : 2 channels
Sampling rate : 48.0 KHz
Compression mode : Lossy
Stream size : 19.9 MiB (7%)
Alignment : Aligned on interleaves
Interleave, duration : 42 ms (1.00 video frame)
Interleave, preload duration : 504 ms
Writing library : LAME3.99r
Encoding settings : -m s -V 4 -q 2 -lowpass 17 -b 128

Screenshots

Sara Ivanhoe 20 Minute Yoga Makeover Repost

Sara Ivanhoe 20 Minute Yoga Makeover Repost

Sara Ivanhoe 20 Minute Yoga Makeover Repost

no mirrors please.
Visit Polik88 Blog Here
no password

Sara Ivanhoe 20 Minute Yoga Makeover Repost



[Directly Download] Sara Ivanhoe - 20 Minute Yoga Makeover (Repost)!


Download this book
DOWNLOAD Free download ezdownloader, then you can free download.

Download "Sara Ivanhoe - 20 Minute Yoga Makeover (Repost)"

使用ezdownloader下载
DOWNLOAD


Copyright Disclaimer:
本站一切内容源于互联网搜索,禁止商用! 如有任何不妥请联系:[email protected],我们将在24小时内删除相关内容。

浏览量:0 添加时间:2014-06-19 04:23:30, 更新时间:2014-06-19 04:23:30, from internet

搜索该书!...


Search mirrors of "Sara Ivanhoe - 20 Minute Yoga Makeover (Repost)"...

Search in ebookee.com!

下载链接


Free Magazine Subscriptions & Technical Document Downloads

推荐:使用EZdownloader下载电子书


没有下载链接
请在图书介绍里查找下载链接,如果没有,可以试着搜索有无其它该书信息。

不能下载?
如果不能下载或者在“图书介绍”中找不到 "Sara Ivanhoe - 20 Minute Yoga Makeover (Repost)" 的下载链接请留言。下次访问本站时察看 所有留言 看是否有人已经更新了该书。

该书可能有其它下载链接,请点 这里查询相关图书


相关链接


"Sara Ivanhoe - 20 Minute Yoga Makeover (Repost)" 相关链接:


Comments


"Sara Ivanhoe - 20 Minute Yoga Makeover (Repost)" 没有评论.

    Leave a Comment

    如果没有下载链接或者下载链接无效,请查看相关链接或者搜索相关资料。

    required

    required

    email addresses

    required

    Not clear? Click to refresh.


    1. 艺术设计
    2. 有声读物
    3. 语言文化
    4. 家庭生活
    5. 法律
    6. 音乐歌词
    7. 软件相关
    8. BT种子
    9. 其它图书
    10. 所有留言
    11. 留言评论
    12. Download Thousands of Books two weeks for FREE!
    13. Download millions of Usenet resources!
    14. 海淀驾校
    Back to Top