Search in ebookee.net!

Yoga Journal Presents: Iyengar Intensive at Estes Park (5 DVD Set) (Repost)



The poster (email) is not available. 收藏推荐: Bookmark this: Yoga Journal Presents Iyengar Intensive at Estes Park 5 DVD Set Repost

图书介绍


Yoga Journal Presents Iyengar Intensive at Estes Park 5 DVD Set Repost

Yoga Journal Presents: Iyengar Intensive at Estes Park (5 DVD Set) (Repost)
DVDRip | English | AVI/XviD 29.970 fps 960 Kbps | 640x480 | MP3 128 Kbps 44.1 khz | Run Time: 1500 minutes | 11.24 GB
Genre: Video Training

“Live and uncut, over 25 hours of B.K.S Iyengar's latest teaching from the Yoga Journal 2005 Estes Park Conference. An essential DVD for all Iyengar students and teachers!
In September 2005, Sri B.K.S. Iyengar participated in a much-heralded intensive dedicated to his teaching, held as part of Yoga Journal’s Estes Park Conference. Along with some of Mr. Iyengar’s senior teachers, he provided those assembled with his latest teachings in asana and pranayama. He also made himself accessible to his students through a variety of talks and question and answer sessions.
The five DVD set, incorporating 25 hours of content, captures each session of this important event. It displays Mr. Iyengar’s passion, vitality, and mastery of yoga. Blending humor and wisdom, Mr. Iyengar’s presence was even more astounding given his 86 years of age. It was possibly his last visit to the United States, and one that can be thoroughly savored and continually revisited in this DVD format.

Mr. Iyengar’s teaching and presence is incorporated in every session of this DVD, including:
-Three asana classes (580 minutes)
-The pranayama classes (282 minutes)
-Q&A session with Mr. Iyengar (150 minutes)
-Mr. Iyengar’s Conference Keynote (62 minutes)
-Conversation with Mr. Iyengar (92 minutes)
-Master classes with master teachers Manouso Manos and Patricia Walden, which include Mr. Iyengar (257 minutes)
-Performance by The Yoga Troup (40 minutes)”
Yoga Journal Presents Iyengar Intensive at Estes Park 5 DVD Set RepostMediaInfo:
General
Complete name : Yoga Journal Presents Iyengar Intensive at Estes Park - 5 DVD Set\Disc 1\1-1-Iyengar1.avi
Format : AVI
Format/Info : Audio Video Interleave
Format profile : OpenDML
File size : 1.52 GiB
Duration : 3h 17mn
Overall bit rate : 1 103 Kbps
Movie name : 1-1-Iyengar1.avi
Director : created.with.SUPER(C).v2011.bld.48
Writing application : SUPER(C)

Video
ID : 0
Format : MPEG-4 Visual
Format profile : [email protected]
Format settings, BVOP : No
Format settings, QPel : No
Format settings, GMC : No warppoints
Format settings, Matrix : Default (H.263)
Codec ID : XVID
Codec ID/Hint : XviD
Duration : 3h 17mn
Bit rate : 960 Kbps
Width : 640 pixels
Height : 480 pixels
Display aspect ratio : 4:3
Frame rate : 29.970 fps
Color space : YUV
Chroma subsampling : 4:2:0
Bit depth : 8 bits
Scan type : Progressive
Compression mode : Lossy
Bits/(Pixel*Frame) : 0.104
Stream size : 1.33 GiB (87%)
Writing library : SUPER(C).

Audio
ID : 1
Format : MPEG Audio
Format version : Version 1
Format profile : Layer 3
Mode : Joint stereo
Mode extension : MS Stereo
Codec ID : 55
Codec ID/Hint : MP3
Duration : 3h 17mn
Bit rate mode : Constant
Bit rate : 128 Kbps
Channel(s) : 2 channels
Sampling rate : 44.1 KHz
Compression mode : Lossy
Stream size : 181 MiB (12%)
Alignment : Aligned on interleaves
Interleave, duration : 26 ms (0.78 video frame)
Writing library : LAME

Screenshots

Yoga Journal Presents Iyengar Intensive at Estes Park 5 DVD Set Repost

Yoga Journal Presents Iyengar Intensive at Estes Park 5 DVD Set Repost

Yoga Journal Presents Iyengar Intensive at Estes Park 5 DVD Set Repost

no mirrors please.
Visit Polik88 Blog Here
no password

Yoga Journal Presents Iyengar Intensive at Estes Park 5 DVD Set Repost



[Directly Download] Yoga Journal Presents: Iyengar Intensive at Estes Park (5 DVD Set) (Repost)!


Download this book
DOWNLOAD Free download ezdownloader, then you can free download.

Download "Yoga Journal Presents: Iyengar Intensive at Estes Park (5 DVD Set) (Repost)"

使用ezdownloader下载
DOWNLOAD


Copyright Disclaimer:
本站一切内容源于互联网搜索,禁止商用! 如有任何不妥请联系:[email protected],我们将在24小时内删除相关内容。

浏览量:0 添加时间:2014-06-19 04:00:51, 更新时间:2014-06-19 04:00:51, from internet

搜索该书!...


Search mirrors of "Yoga Journal Presents: Iyengar Intensive at Estes Park (5 DVD Set) (Repost)"...

Search in ebookee.com!

下载链接


Free Magazine Subscriptions & Technical Document Downloads

推荐:使用EZdownloader下载电子书


没有下载链接
请在图书介绍里查找下载链接,如果没有,可以试着搜索有无其它该书信息。

不能下载?
如果不能下载或者在“图书介绍”中找不到 "Yoga Journal Presents: Iyengar Intensive at Estes Park (5 DVD Set) (Repost)" 的下载链接请留言。下次访问本站时察看 所有留言 看是否有人已经更新了该书。

该书可能有其它下载链接,请点 这里查询相关图书


相关链接


"Yoga Journal Presents: Iyengar Intensive at Estes Park (5 DVD Set) (Repost)" 相关链接:


Comments


"Yoga Journal Presents: Iyengar Intensive at Estes Park (5 DVD Set) (Repost)" 没有评论.

    Leave a Comment

    如果没有下载链接或者下载链接无效,请查看相关链接或者搜索相关资料。

    required

    required

    email addresses

    required

    Not clear? Click to refresh.


    1. 艺术设计
    2. 有声读物
    3. 语言文化
    4. 家庭生活
    5. 法律
    6. 音乐歌词
    7. 软件相关
    8. BT种子
    9. 其它图书
    10. 所有留言
    11. 留言评论
    12. Download Thousands of Books two weeks for FREE!
    13. Download millions of Usenet resources!
    14. 海淀驾校
    Back to Top